» » Marilyn Monroe - When I Fall In Love
dawnklehrbooks
full-dateMP3 1684 mb. | FLAC 1948 mb. | WMA: 1194 mb.
Jazz / Pop music / Screen & Stage

Marilyn Monroe - When I Fall In Love album mp3

Marilyn Monroe - When I Fall In Love album mp3

Performer: Marilyn Monroe
Title: When I Fall In Love
Released: 1987
Style: Ballad, Soundtrack, Vocal
Rating: 4.7
Votes: 499
Other formats: VQF WMA AIFF TTA FLAC AAC WAV

Watch the video for When I Fall in Love from Marilyn Monroe's The Essential Recordings for free, and see the artwork, lyrics and similar artists. Marilyn Monroe, (1 June 1926 – 5 August 1962), born Norma Jeane Mortenson but baptized Norma Jeane Baker, was an American actress, singer and model. She was born in Los Angeles, California, . After spending much of her childhood in foster homes, Monroe began a career as a model, which led to a film contract in 1947. Her early roles were minor, but her performances in The Asphalt Jungle and All About Eve (both 1950) were well received.

When I fall in love, It will be forever, Or I'll never fall in love. In a restless world, Like this is, Love is ended Before it's begun. Marilyn Monroe - Collection Album Lyrics. 1. (This Is) a Fine Romance. 2. After You Get What You Want, You Don't Want It. 3. Diamonds Are a Girl's Best Friend.

Album: Great Marilyn Monroe. When I fall in love, It will be forever, Or I'll never fall in love. And too many moonlight kisses, Seem to cool in the warmth of the sun. When I give my heart, It will be completely, Or I'll never give my heart.

Marilyn Monroe – I Wanna Be Love by You. 2:33. Marilyn Monroe – I'm Through with Love. Marilyn Monroe – Let's Make Love. Jane Russell & Marilyn Monroe – When Love Goes Wrong Nothing Goes Right. Marilyn Monroe, Frankie Vaughan – Let's Make Love. Marilyn Monroe – When I Fall In Love. Marilyn Monroe – I Wanna Be Loved By You.

I Fall in Love Too Easily is the fifth studio album by American actress, singer and songwriter Katharine McPhee. It was released on November 17, 2017 via BMG. The record was produced by Don Was, and features covers of romantic American standards.

Following are popular Marilyn Monroe quotes and sayings with images. If you’re looking for the best Marilyn quotes you’ve come to the right place. We’ve compiled a list of 70 inspiring Marilyn Monroe quotes on life, love, happiness, success, work, dreams, character and more. 70 Inspiring Marilyn Monroe Quotes On Love And Life With Images. I don’t forgive people because I’m weak, I forgive them because I am strong enough to know people make mistakes. Sometimes good things fall apart so better things can fall together.

When I fall in love 03. One silver dollar 04. Happy birthda Mr. President 0. through with love" PERFORMER "Marilyn Monroe" INDEX 01 35:59:04 TRACK 13 AUDIO TITLE "A little girl from a little rock" PERFORMER "Marilyn Monroe" INDEX 01 38:30:13 TRACK 14 AUDIO TITLE "I found a dream" PERFORMER "Marilyn Monroe" INDEX 01 41:32:65 TRACK 15 AUDIO TITLE "Alexander's ragtime band, There's no business like show business" PERFORMER "Marilyn

When I Fall In Love - Marilyn Monroe. After You Get What You Want, You Don't Want It - Marilyn Monroe. Some Like It Hot - Marilyn Monroe. I'm through with love I'll never fall again Said adieu to love Don't ever call again For I must have you or no one And so I'm through with love. I've locked my heart I'll keep my feelings there I've stocked my heart With icy, frigid air And I mean to care for no one Because I'm through with love. Why did you lead me To think you could care?

Tracklist Hide Credits

A When I Fall In Love
Written-By – Heyman*, Young*
2:58
B Heat Wave
Written-By – Berlin*
4:24

Companies, etc.

  • Printed By – SNA

Notes

Back sleeve notes :
Top Hit U.K.
Taken from the album 66.461 "Goodbye Norman Jean"
K7. 76.461 - CD. 96.461

Licensed by Teldec Germany

This single Ⓟ&Ⓒ 1987

Liner notes : David Nicholson

Barcode and Other Identifiers

  • Rights Society: SACEM SACD SDRM SGDL
  • Barcode: 3 218030 142936
  • Barcode: 3218030142936
  • Distribution Code: CA 171
  • Matrix / Runout (Label side A): 14293/1
  • Matrix / Runout (Label side B): 14293/2
  • Matrix / Runout (Hand-Etched side A): 14293 A
  • Matrix / Runout (Hand-Etched side B): 14293 B

Other versions

Category Artist Title (Format) Label Category Country Year
ZOOM 6 Marilyn Monroe When I Fall In Love ‎(7", Single) Zuma ZOOM 6 UK 1987
ZOOM T6 Marilyn Monroe When I Fall In Love ‎(12", Single) Zuma ZOOM T6 UK 1987
6.14802 AC Marilyn Monroe When I Fall In Love / Heat Wave ‎(7", Single) Teldec, PDI 6.14802 AC Spain 1987
SC007 Marilyn Monroe When I Fall In Love ‎(Flexi, 5", S/Sided, Pos) Soundcard SC007 Denmark Unknown
6.14802, 6.14802 AC Marilyn Monroe When I Fall In Love ‎(7", Single) Ultraphone, Ultraphone 6.14802, 6.14802 AC Germany 1987
2016-2019 © album.dawnklehrbooks.com
All rights reserved