» » Eleanor Powell With Tommy Dorsey & His Orchestra - You Are My Lucky Star / I've Got A Feelin' You're Foolin'
dawnklehrbooks
full-dateMP3 1800 mb. | FLAC 1461 mb. | WMA: 1657 mb.
Jazz / Pop music

Eleanor Powell With Tommy Dorsey & His Orchestra - You Are My Lucky Star / I've Got A Feelin' You're Foolin' album mp3

Eleanor Powell With Tommy Dorsey & His Orchestra - You Are My Lucky Star / I've Got A Feelin' You're Foolin' album mp3

Performer: Eleanor Powell
Title: You Are My Lucky Star / I've Got A Feelin' You're Foolin'
Country: UK
Released: 1936
Style: Big Band, Vocal
Rating: 4.8
Votes: 374
Other formats: VOX APE AAC MOD VOC DXD RA

Eleanor Powell With Tommy Dorsey & His Orchestra. Eleanor Powell With Tommy Dorsey & His Orchestra - You Are My Lucky Star, I've Got A Feelin' You're Foolin' ‎(Shellac, 10").

Eleanor Powell sings "You Are My Lucky Star" (just before she taps it) in Broadway Melody of 1936. Eleanor Powell dances in ballet to "You Are My Lucky Star" in Broadway Melody of 1936. vocal dubbed by Marjorie Lane. Early Recordings of "You Are My Lucky Star". In either case, "You Are My Lucky Star" got lucky a lot earlier than "Singin' in the Rain. Before Gene Kelly and Debbie Reynolds performed the latter song in their 1952 movie, "You Are My Lucky Star" had already become a hit and was well on its way to becoming a standard because of the kick-start it got from Broadway Melody of '36 and the recordings spawned by the film. The evidence for this can be seen and heard in the Cafe Songbook Record/Video Cabinet above right. Louis Armstrong and His Orchestra recorded "You Are My Lucky Star" on October 3, 1935 in New York City.

I’ve got a feelin’ you’re foolin’ I’ve got a notion it’s make believe I think you’re laughin’right up your sleeve Foolin’ with me. Life is worth living while you are giving Moments of paradise. You’re such a stand out, but how you hand out That hocus pocus from your eyes. I’ve got a feelin’ you’re foolin’ I’ve got a feelin’ it’s all a frame It’s just the well known army game Foolin’ with You. Send "I’ve got a feelin’ you’re foolin’" Ringtone to your Cell. Другие песни из The Dorsey brothers orchestra. What a difference a day made. I’ve got a feelin’ you’re foolin’ Тексты песен являются собственностью соответствующих художников, писателей и этикетки. Эти тексты служат только для eduacational целей. Пожалуйста, купить песню, если вы их любите.

Listen to I've Got a Feelin' You're Foolin' from The Dorsey Brothers's New York Jazz Orchestra for free, and see the artwork, lyrics and similar artists. I've Got a Feelin' You're Foolin'. Set as current obsession. Go to artist profile.

I've Got A Feelin' You're Foolin'. flac" WAVE INDEX 01 00:00:00 TRACK 11 AUDIO TITLE "Got A Bran' New Suit" PERFORMER "Tommy Dorsey And His Orchestra" INDEX 00 02:29:33 FILE "11. Got A Bran' New Suit. flac" WAVE INDEX 01 00:00:00 TRACK 15 AUDIO TITLE "That's Not Cricket" PERFORMER "Tommy Dorsey And His Orchestra" INDEX 00 02:44:28 FILE "15. That's Not Cricket. flac" WAVE INDEX 01 00:00:00 TRACK 16 AUDIO TITLE "What A Wonderful World" PERFORMER "Tommy Dorsey And His Orchestra" INDEX 00 03:07:30 FILE "16.

Lyrics to I've Got a Feelin' You're Foolin' by Eleanor Powell from the Star Spangled Rhythm album - including song video, artist biography, translations and more! . Eleanor Torrey Powell (November 21, 1912 – February 11, 1982) was an American dancer and actress. I've got a feelin' you're foolin' I've got a feelin' you're havin' fun I'll get a goby when you are done foolin' with me I've got a feelin' you're foolin' I've got a notion it's make believe I think you're laughin' right up your sleeve Foolin' with me Life is worth living while

Tracklist Hide Credits

A You Are My Lucky Star
Written-By – Freed*, Brown*
B I've Got A Feelin' You're Foolin'
Written-By – Freed*

Credits

  • Tap Dance – Eleanor Powell
  • Vocals – Eleanor Powell

Notes

A&B from M.G.M. Film "Broadway Meody of 1936"

Barcode and Other Identifiers

  • Matrix / Runout (Side A): OA95379-1
  • Matrix / Runout (Side B): OA95380-1

Other versions

Category Artist Title (Format) Label Category Country Year
B.8396 Eleanor Powell With Tommy Dorsey And His Orch.* Eleanor Powell With Tommy Dorsey And His Orch.* - You Are My Lucky Star / I've Got A Feelin' You're Foolin' ‎(Shellac, 10") His Master's Voice B.8396 UK 1936
25158 Eleanor Powell With Tommy Dorsey & His Orchestra* Eleanor Powell With Tommy Dorsey & His Orchestra* - You Are My Lucky Star / I've Got A Feelin' You're Foolin' ‎(Shellac, 10") Victor 25158 US 1936


2016-2019 © album.dawnklehrbooks.com
All rights reserved