» » Les Pommes De Ma Douche - Swing From Paris
dawnklehrbooks
full-dateMP3 1679 mb. | FLAC 1272 mb. | WMA: 1734 mb.
Jazz

Les Pommes De Ma Douche - Swing From Paris album mp3

Les Pommes De Ma Douche - Swing From Paris album mp3

Performer: Les Pommes De Ma Douche
Title: Swing From Paris
Released: 2007
Style: Swing
Rating: 4.4
Votes: 206
Other formats: AUD DXD MP4 WMA MPC RA MP3

Les Pommes de Ma Douche. Jacques Larue, Cole Porter. Les Pommes de Ma Douche.

Songs start at USD . 9. Released: 21 Feb 2008. 2008 Le Chant du Monde. More By Les Pommes de Ma Douche.

Y va tomber des cordes ! Stranger in Paris. Get the Tempo of more than 6 Million songs.

Listen to Stranger in Paris from Les pommes de ma douche's Swing From Paris for free, and see the artwork, lyrics and similar artists.

J'aime paris au mois de mai. 6. 00:00, 00:00.

Paris Swing is based in Kilkenny. We play swing, gypsy jazz, musette and tango. This Sunday 14th of May more gypsy jazz from Paris Swing in Harpers restaurant in Kilkenny the Royal City. We'll swing God save the Queen and all that. 5 May 2017 ·. Nothing from us this weekend. Les Pommes de ma douche et tchavolo schmitt.

New CD: Les Pommes de ma Douche with Raphael Fays – Swing from Paris. Les Pommes de ma Douche with Raphael Fays Swing from Paris. Posted by Michael Horowitz on July 10, 2008 at 9:37 am in News. New Book: Django Reinhardt – Easy Django, Volume 2.

wav Pre-gap length 0:00:03. wav" WAVE INDEX 01 00:00:00 TRACK 11 AUDIO TITLE "Revoir Paris" PERFORMER "Les Pommes De Ma Douche" INDEX 00 03:12:50 FILE "11. Revoir Paris. wav" WAVE INDEX 01 00:00:00 TRACK 12 AUDIO TITLE "Le soleil et la lune" PERFORMER "Les Pommes De Ma Douche" INDEX 00 05:01:62 FILE "12. Le soleil et la lune. wav" WAVE INDEX 01 00:00:00 TRACK 13 AUDIO TITLE "Vous, qui passez sans me voir" PERFORMER "Les Pommes De Ma Douche" INDEX 00 04:16:37 FILE "13.

Emules de Django, disciples de Brassens. More Les pommes de ma douche. Listen to Five men swinging now. Listen to Five men swinging in full in the this site app.

Tracklist

1 Scènes de Paris
2 I Love Paris
3 A Paris
4 Pigalle
5 J'aime Paris Au Mois de Mai
6 Stranger In Paris
7 Swing from Paris
8 Ménilmontant
9 Où Es-tu Passé Mon Saint-Germain-des-Prés
10 Fleur de Paris
11 Quel temps fait-il à Paris?
12 Paris Jadis
13 Paris Swing
14 Revoir Paris

Credits

  • Accordion – David Rivière
  • Contrabass – Laurent Delaveau
  • Guitar – Dominique Rouquier, Pierre Delaveau
  • Guitar, Guest – Raphaël Fays (tracks: 7,12)
  • Violin – Laurent Zeller

Barcode and Other Identifiers

  • Barcode: 794881882724
2016-2019 © album.dawnklehrbooks.com
All rights reserved